Hirdetés

2021. április 13., kedd

Gyorskeresés

Útvonal

Fórumok  »  Sport, életmód, utazás, egészség  »  Formula-1 (kiemelt téma)

Téma összefoglaló

Téma összefoglaló

  • Utoljára frissítve: 2021-03-25 18:09:42

LOGOUT.hu

Formula-1

Összefoglaló kinyitása ▼

Hozzászólások

(#107080) Atomantiii válasza Leon77 (#107079) üzenetére


Atomantiii
őstag

Ilyen a feladás szerintem ha az 5.1-re gondolsz, bár mondjuk azt nem tudom hol lehet media player vagy vlc alatt megnézni mikor van 5.1-es hang.

Most ilyen a hivatalos műholdas feed:
TATA WIF MAIN

Mux. bitrate: 22,244 Mbit

Video: MPEG4 Video (H264) 1920x1080 25fps [V: h264 high 4:2:2 L4.1, yuv422p10le, 1920x1080]
Audio: MPEG Audio 48000Hz stereo 256kbps [A: mp2, 48000 Hz, stereo, 256 kb/s]
Audio: 0x001c 48000Hz stereo 2304kbps [A: s302m, 48000 Hz, stereo, s20, 2304 kb/s]
Audio: MPEG Audio 48000Hz stereo 256kbps [A: mp2, 48000 Hz, stereo, 256 kb/s]
Audio: MPEG Audio 48000Hz stereo 192kbps [A: mp2, 48000 Hz, stereo, 192 kb/s]
Audio: MPEG Audio 48000Hz stereo 192kbps [A: mp2, 48000 Hz, stereo, 192 kb/s]
Audio: MPEG Audio 48000Hz stereo 192kbps [A: mp2, 48000 Hz, stereo, 192 kb/s]
Audio: MPEG Audio 48000Hz stereo 192kbps [A: mp2, 48000 Hz, stereo, 192 kb/s]
Audio: MPEG Audio 48000Hz stereo 192kbps [A: mp2, 48000 Hz, stereo, 192 kb/s]

(bár az audio 2-nél 6 channels-t ír, de azon csak sercegés van, az audio 1 a natural sounds hangsáv)

Video
ID : 512 (0x200)
Menu ID : 1 (0x1)
Format : AVC
Format/Info : Advanced Video Codec
Format profile : High 4:2:2@L4.1
Format settings, CABAC : Yes
Format settings, RefFrames : 4 frames
Format settings, GOP : M=4, N=20
Codec ID : 27
Duration : 35 s 880 ms
Bit rate : 16.6 Mb/s
Width : 1 920 pixels
Height : 1 080 pixels
Display aspect ratio : 16:9
Frame rate : 25.000 FPS
Color space : YUV
Chroma subsampling : 4:2:2
Bit depth : 10 bits
Scan type : Interlaced
Scan type, store method : Separated fields
Scan order : Top Field First
Bits/(Pixel*Frame) : 0.320
Stream size : 71.0 MiB (76%)
Color range : Limited
Color primaries : BT.709
Transfer characteristics : BT.709
Matrix coefficients : BT.709

Audio #1
ID : 4112 (0x1010)
Menu ID : 1 (0x1)
Format : MPEG Audio
Format version : Version 1
Format profile : Layer 2
Codec ID : 3
Duration : 36 s 312 ms
Bit rate mode : Constant
Bit rate : 256 kb/s
Channel(s) : 2 channels
Sampling rate : 48.0 kHz
Compression mode : Lossy
Delay relative to video : -592 ms
Stream size : 1.11 MiB (1%)

Audio #2
ID : 4128 (0x1020)
Menu ID : 1 (0x1)
Format : Dolby E
Mode : 20
Format settings, Endianness : Little
Muxing mode : SMPTE ST 302 / SMPTE ST 337
Codec ID : 131
Duration : 36 s 360 ms
Bit rate mode : Constant
Bit rate : 1 920 kb/s
Encoded bit rate : 2 304 kb/s
Channel(s) : 6 channels
Channel positions : Front: L C R, Side: L R, LFE
Sampling rate : 48.0 kHz
Frame rate : 25.000 FPS (1920 SPF)
Bit depth : 20 bits
Delay relative to video : -624 ms
Stream size : 8.32 MiB (9%)

Audio #3
ID : 4144 (0x1030)
Menu ID : 1 (0x1)
Format : MPEG Audio
Format version : Version 1
Format profile : Layer 2
Codec ID : 3
Duration : 36 s 384 ms
Bit rate mode : Constant
Bit rate : 256 kb/s
Channel(s) : 2 channels
Sampling rate : 48.0 kHz
Compression mode : Lossy
Delay relative to video : -672 ms
Stream size : 1.11 MiB (1%)

Audio #4
ID : 4160 (0x1040)
Menu ID : 1 (0x1)
Format : MPEG Audio
Format version : Version 1
Format profile : Layer 2
Codec ID : 3
Duration : 36 s 336 ms
Bit rate mode : Constant
Bit rate : 192 kb/s
Channel(s) : 2 channels
Sampling rate : 48.0 kHz
Compression mode : Lossy
Delay relative to video : -592 ms
Stream size : 852 KiB (1%)

Audio #5
ID : 4176 (0x1050)
Menu ID : 1 (0x1)
Format : MPEG Audio
Format version : Version 1
Format profile : Layer 2
Codec ID : 3
Duration : 36 s 336 ms
Bit rate mode : Constant
Bit rate : 192 kb/s
Channel(s) : 2 channels
Sampling rate : 48.0 kHz
Compression mode : Lossy
Delay relative to video : -608 ms
Stream size : 852 KiB (1%)

Audio #6
ID : 4192 (0x1060)
Menu ID : 1 (0x1)
Format : MPEG Audio
Format version : Version 1
Format profile : Layer 2
Codec ID : 3
Duration : 36 s 288 ms
Bit rate mode : Constant
Bit rate : 192 kb/s
Channel(s) : 2 channels
Sampling rate : 48.0 kHz
Compression mode : Lossy
Delay relative to video : -560 ms
Stream size : 851 KiB (1%)

Audio #7
ID : 4208 (0x1070)
Menu ID : 1 (0x1)
Format : MPEG Audio
Format version : Version 1
Format profile : Layer 2
Codec ID : 3
Duration : 36 s 288 ms
Bit rate mode : Constant
Bit rate : 192 kb/s
Channel(s) : 2 channels
Sampling rate : 48.0 kHz
Compression mode : Lossy
Delay relative to video : -552 ms
Stream size : 851 KiB (1%)

Audio #8
ID : 4224 (0x1080)
Menu ID : 1 (0x1)
Format : MPEG Audio
Format version : Version 1
Format profile : Layer 2
Codec ID : 3
Duration : 36 s 288 ms
Bit rate mode : Constant
Bit rate : 192 kb/s
Channel(s) : 2 channels
Sampling rate : 48.0 kHz
Compression mode : Lossy
Delay relative to video : -552 ms
Stream size : 851 KiB (1%)

[ Szerkesztve ]

Útvonal

Fórumok  »  Sport, életmód, utazás, egészség  »  Formula-1 (kiemelt téma)
Copyright © 2000-2021 PROHARDVER Informatikai Kft.