Hirdetés

2019. december 13., péntek

Gyorskeresés

Hozzászólások

(#513) flash-


flash-
(veterán)

emberek egy kérdés lenne:

ha egy exact audio copy-val készitett flac log fájljában az alábbi van az azt jelenti hogy 320-as mp3-ból készült a flac?

Exact Audio Copy V1.0 beta 3 from 29. August 2011

EAC extraction logfile from 30. May 2015, 18:05

Circus Maximus / Nine

Used drive : SlimtypeDVD A DS8A5SH Adapter: 0 ID: 0

Read mode : Secure
Utilize accurate stream : Yes
Defeat audio cache : Yes
Make use of C2 pointers : No

Read offset correction : 6
Overread into Lead-In and Lead-Out : No
Fill up missing offset samples with silence : Yes
Delete leading and trailing silent blocks : No
Null samples used in CRC calculations : Yes
Used interface : Installed external ASPI interface

Used output format : User Defined Encoder
Selected bitrate : 320 kBit/s
Quality : High
Add ID3 tag : No
Command line compressor : C:\Program Files (x86)\Exact Audio Copy\Flac\flac.exe
Additional command line options : -V -8 -T "Date=%year%" -T "Genre=%genre%" %source%

TOC of the extracted CD

Track | Start | Length | Start sector | End sector
---------------------------------------------------------
1 | 0:00.00 | 1:15.57 | 0 | 5681
2 | 1:15.57 | 10:11.40 | 5682 | 51546
3 | 11:27.22 | 4:01.59 | 51547 | 69680
4 | 15:29.06 | 5:00.38 | 69681 | 92218
5 | 20:29.44 | 4:59.29 | 92219 | 114672
6 | 25:28.73 | 4:20.16 | 114673 | 134188
7 | 29:49.14 | 4:51.51 | 134189 | 156064
8 | 34:40.65 | 4:00.13 | 156065 | 174077
9 | 38:41.03 | 8:47.62 | 174078 | 213664
10 | 47:28.65 | 9:59.34 | 213665 | 258623
11 | 57:28.24 | 5:22.00 | 258624 | 282773
12 | 62:50.24 | 5:33.47 | 282774 | 307795

Range status and errors

Selected range

Filename D:\My Music\Circus Maximus - Japanese Lossless Discography\Circus Maximus - 2012 Nine\Circus Maximus - Nine.wav

Peak level 100.0 %
Extraction speed 4.9 X
Range quality 100.0 %
Test CRC 5126CCF2
Copy CRC 5126CCF2
Copy OK

No errors occurred

AccurateRip summary

Track 1 accurately ripped (confidence 4) [F1B4490E] (AR v2)
Track 2 accurately ripped (confidence 4) [B530F792] (AR v2)
Track 3 accurately ripped (confidence 4) [49BAE29D] (AR v2)
Track 4 accurately ripped (confidence 4) [42EA02F0] (AR v2)
Track 5 accurately ripped (confidence 4) [7C748AEE] (AR v2)
Track 6 accurately ripped (confidence 4) [599A6F2C] (AR v2)
Track 7 accurately ripped (confidence 4) [5A7583A0] (AR v2)
Track 8 accurately ripped (confidence 4) [7F7A750B] (AR v2)
Track 9 accurately ripped (confidence 4) [A4C379B4] (AR v2)
Track 10 accurately ripped (confidence 4) [95A412BF] (AR v2)
Track 11 accurately ripped (confidence 4) [35BD7995] (AR v2)
Track 12 accurately ripped (confidence 3) [FFE98EB4] (AR v2)

All tracks accurately ripped

End of status report

==== Log checksum F063695EE71D767E969D5C992DAA1CFB673A7405474508E7A8D7739BEC7D6FAE ====

[ Szerkesztve ]

Copyright © 2000-2019 PROHARDVER Informatikai Kft.